Enable / Włącz Javascript
 Widok 
 Kategorie 
 Nitro Torrent w sieci 
 Top 10 użytkowników 
 300: Początek imperium 3D(OU) - 300: Rise of an Empire 3D *2014* [1080p Half Over-Under DTS 5 1 AC3 BluRay x264-SONDA] [Lektor i Napisy PL]

300: Początek imperium 3D(OU) - 300: Rise of an Empire 3D *2014* [1080p Half Over-Under DTS 5 1 AC3 BluRay x264-SONDA] [Lektor i Napisy PL]
Kategoria: » » »
Dodane: 03/10/2017
Rozmiar: 10.77 GB
Uploader: tomysparow559 (10)
seed(ów): 0
leecher(ów): 0
Pobrane: 6
Komentarzy: 0
Pobierz Torrent Pobierz Torrent
Pobierz [Magnet] Pobierz [Magnet]

Obserwuj
Raportuj
Film w wersji 3D Over-Under.
Do odtworzenia filmu WYMAGANY odpowiedni sprzęt (TV 3D)
=================================================


Blu-ray http://www.blu-ray.com/movies/300-Rise-of-an-Empire-3D-Blu-ray/70714/



gatunek: Dramat,Akcja
produkcja: USA
premiera: 7 marca 2014 (Polska) 5 marca 2014 (świat)
reżyseria: Noam Murro
scenariusz: Kurt Johnstad,Zack Snyder

Obsada:
Sullivan Stapleton...Temistokles
Eva Green...Artemizja
Lena Headey...Królowa Gorgo
Hans Matheson...Aesyklos
Rodrigo Santoro...Xerxes
Callan Mulvey...Scyllias

Opis:
Film "300: Początek imperium" na podstawie najnowszej powieści graficznej Franka Millera pt: "Kserkses", nakręcony w stylu hitu kinowego "300", to kolejny rozdział epickiej sagi opowiadający — tym razem w scenerii bitwy morskiej — historię greckiego generała Temistoklesa, który próbuje zjednoczyć Grecję, idąc na bitwę, która zmieni bieg wojny.
"300: Początek imperium" ukazuje losy Temistoklesa stającego przeciwko wielkiej inwazji wojsk perskich, którymi dowodzą Kserkses, śmiertelnik obdarowany boskimi siłami, oraz Artemizja, mściwa dowódczyni perskiej floty morskiej.


General
Format : Matroska
Format version : Version 2
File size : 10.8 GiB
Duration : 1h 42mn
Overall bit rate mode : Variable
Overall bit rate : 15.0 Mbps
Movie name : 300_RISE_OF_AN_EMPIRE_3D_NNMClub.Title0.Bluray3D Rip by Sonda [AT-Team]
Encoded date : UTC 2014-06-11 08:57:53
Writing application : mkvmerge v5.7.0 ('The Whirlwind') built on Jul 8 2012 20:08:51
Writing library : libebml v1.2.3 + libmatroska v1.3.0

Video
ID : 1
Format : AVC
Format/Info : Advanced Video Codec
Format profile : High@L4.1
Format settings, CABAC : Yes
Format settings, ReFrames : 2 frames
Codec ID : V_MPEG4/ISO/AVC
Duration : 1h 42mn
Bit rate mode : Variable
Bit rate : 11.9 Mbps
Maximum bit rate : 40.0 Mbps
Width : 1 920 pixels
Height : 1 080 pixels
Display aspect ratio : 2.39:1
Frame rate mode : Constant
Frame rate : 23.976 fps
Color space : YUV
Chroma subsampling : 4:2:0
Bit depth : 8 bits
Scan type : Progressive
Bits/(Pixel*Frame) : 0.240
Stream size : 8.55 GiB (79%)
Title : Rip by Sonda
Writing library : x264 core
Default : Yes
Forced : No
Color primaries : BT.709
Transfer characteristics : BT.709
Matrix coefficients : BT.709

Audio #1
ID : 2
Format : AC-3
Format/Info : Audio Coding 3
Mode extension : CM (complete main)
Format settings, Endianness : Big
Codec ID : A_AC3
Duration : 1h 42mn
Bit rate mode : Constant
Bit rate : 640 Kbps
Channel(s) : 6 channels
Channel positions : Front: L C R, Side: L R, LFE
Sampling rate : 48.0 KHz
Bit depth : 16 bits
Compression mode : Lossy
Stream size : 470 MiB (4%)
Title : AC3 5.1 Lektor PL
Language : Polish
Default : Yes
Forced : Yes

Audio #2
ID : 3
Format : AC-3
Format/Info : Audio Coding 3
Mode extension : CM (complete main)
Format settings, Endianness : Big
Codec ID : A_AC3
Duration : 1h 42mn
Bit rate mode : Constant
Bit rate : 640 Kbps
Channel(s) : 6 channels
Channel positions : Front: L C R, Side: L R, LFE
Sampling rate : 48.0 KHz
Bit depth : 16 bits
Compression mode : Lossy
Stream size : 470 MiB (4%)
Title : AC3 5.1 English
Language : English
Default : No
Forced : No

Audio #3
ID : 4
Format : DTS
Format/Info : Digital Theater Systems
Mode : 16
Format settings, Endianness : Big
Codec ID : A_DTS
Duration : 1h 42mn
Bit rate mode : Constant
Bit rate : 1 509 Kbps
Channel(s) : 6 channels
Channel positions : Front: L C R, Side: L R, LFE
Sampling rate : 48.0 KHz
Bit depth : 24 bits
Compression mode : Lossy
Stream size : 1.08 GiB (10%)
Title : DTS 5.1 Original
Language : English
Default : No
Forced : No

Text #1
ID : 5
Format : UTF-8
Codec ID : S_TEXT/UTF8
Codec ID/Info : UTF-8 Plain Text
Title : napisy 2D.srt
Language : Polish
Default : No
Forced : No

Text #2
ID : 6
Format : PGS
Muxing mode : zlib
Codec ID : S_HDMV/PGS
Codec ID/Info : The same subtitle format used on BDs/HD-DVDs
Title : napisy 3D.sup
Language : Polish
Default : No
Forced : No

Menu
00:00:00.000 : en:(01)00:00:00:000
00:10:26.375 : en:(02)00:10:26:375
00:20:54.627 : en:(03)00:20:54:627
00:31:15.289 : en:(04)00:31:15:289
00:40:58.496 : en:(05)00:40:58:496
00:50:50.713 : en:(06)00:50:50:713
01:00:05.434 : en:(07)01:00:05:434
01:09:51.811 : en:(08)01:09:51:811
01:19:51.243 : en:(09)01:19:51:243
01:31:07.295 : en:(10)01:31:07:295
01:33:57.131 : en:(11)01:33:57:131
01:42:35.481 : en:(12)01:42:35:481

Dostępne napisy
Brak napisów
Szczegóły torrenta
Tracker http://tracker.aletorrenty.pl:2710/announce
Multitracker [ Pokaż ]
Kategoria: » » » [Zgłoś błąd]
Dodane 03-10-2017
Podziękowali:
0 użytkowników 
Podziękuj!
Pokaż / Ukryj pliki:
Nazwa pliku Rozmiar
300_RISE_OF_AN_EMPIRE_3D(Sonda).mkv 10.77 GB
AT-TEAM old movie.jpg 140.78 KB
d83d391d049b.jpg 99.24 KB
300_RISE_OF_AN_EMPIRE_3D(Sonda).srt 50.16 KB
AT-TEAM.jpg 36.66 KB
300_RISE_OF_AN_EMPIRE_3D(Sonda).txt 35.60 KB
Read iNFO.txt 2.07 KB
Ale Torrenty Team enjoy !.url 0.11 KB
8 plików
Brak komentarzy...