Enable / Włącz Javascript
 Widok 
 Kategorie 
 Nitro Torrent w sieci 
 Top 10 użytkowników 
 Bogowie Egiptu 3D Gods of Egypt *2016* [mini-HD 1080p 3D Half Over-Under DualAudio AC3 BluRay x264] [Dubbing i Napisy PL]

Bogowie Egiptu 3D Gods of Egypt *2016* [mini-HD 1080p 3D Half Over-Under DualAudio AC3 BluRay x264] [Dubbing i Napisy PL]
Kategoria: » » »
Dodane: 03/10/2017
Rozmiar: 3.93 GB
Uploader: tomysparow559 (10)
seed(ów): 0
leecher(ów): 0
Pobrane: 28
Komentarzy: 0
Pobierz Torrent Pobierz Torrent
Pobierz [Magnet] Pobierz [Magnet]

Obserwuj
Raportuj
gatunek: Fantasy,Przygodowy
produkcja: USA
premiera: 26 lutego 2016 (Polska) 24 lutego 2016 (świat)
reżyseria: Alex Proyas
scenariusz: Matt Sazama,Burk Sharpless



Set, bezwzględny bóg ciemności, siłą i podstępem przejmuje egipski tron. Faraon ginie, kapłani są bezsilni, a zwykli ludzie stają się niewolnikami. Tylko garstka buntowników stawia czoła uzurpatorowi, by ocalić imperium. Na ich czele staje bohaterski śmiertelnik Bek, który z pomocą potężnego i miłosiernego boga Horusa wyrusza w zaświaty i do samych niebios, by tam odnaleźć i pokonać Seta i jego hordy. Tak rozpoczyna się pełna niezwykłych przygód, magii i poświęceń krucjata śmiertelnika i boga w obronie naszego świata.



Aleksandra Radwan ... Zaya (polski dubbing)
Miłogost Reczek ... Ra (polski dubbing)
Grzegorz Pawlak ... Ozyrys (polski dubbing)
Przemysław Stippa ... Tot (polski dubbing)
Tomasz Borkowski ... Urshu (polski dubbing)
Sławomir Pacek ... Anubis (polski dubbing)



General
Format : Matroska
Format version : Version 2
File size : 3.93 GiB
Duration : 2h 7mn
Overall bit rate : 4 428 Kbps
Encoded date : UTC 2016-08-20 17:03:31
Writing application : mkvmerge v5.7.0 ('The Whirlwind') built on Jul 8 2012 20:08:51
Writing library : libebml v1.2.3 + libmatroska v1.3.0

Video
ID : 1
Format : AVC
Format/Info : Advanced Video Codec
Format profile : High@L4.1
Format settings, CABAC : Yes
Format settings, ReFrames : 4 frames
Codec ID : V_MPEG4/ISO/AVC
Duration : 2h 7mn
Bit rate : 3 500 Kbps
Width : 1 920 pixels
Height : 1 080 pixels
Display aspect ratio : 16:9 (2.39:1)
Frame rate mode : Constant
Frame rate : 23.976 fps
Color space : YUV
Chroma subsampling : 4:2:0
Bit depth : 8 bits
Scan type : Progressive
Bits/(Pixel*Frame) : 0.070
Stream size : 3.06 GiB (78%)
Title : Rip by Sonda
Writing library : x264 core 148 r2638 7599210
Encoding settings : cabac=1 / ref=4 / deblock=1:-1:-1 / rc=2pass
Default : Yes
Forced : No

Audio #1
ID : 2
Format : AC-3
Format/Info : Audio Coding 3
Mode extension : CM (complete main)
Format settings, Endianness : Big
Codec ID : A_AC3
Duration : 2h 7mn
Bit rate mode : Constant
Bit rate : 448 Kbps
Channel count : 6 channels
Channel positions : Front: L C R, Side: L R, LFE
Sampling rate : 48.0 KHz
Bit depth : 16 bits
Compression mode : Lossy
Stream size : 407 MiB (10%)
Title : AC3 5.1 Dubbing PL
Language : Polish
Default : Yes
Forced : Yes

Audio #2
ID : 3
Format : AC-3
Format/Info : Audio Coding 3
Mode extension : CM (complete main)
Format settings, Endianness : Big
Codec ID : A_AC3
Duration : 2h 7mn
Bit rate mode : Constant
Bit rate : 448 Kbps
Channel count : 6 channels
Channel positions : Front: L C R, Side: L R, LFE
Sampling rate : 48.0 KHz
Bit depth : 16 bits
Compression mode : Lossy
Stream size : 407 MiB (10%)
Title : AC3 5.1 ENG
Language : English
Default : No
Forced : No

Text #1
ID : 4
Format : UTF-8
Codec ID : S_TEXT/UTF8
Codec ID/Info : UTF-8 Plain Text
Title : napisy PL 2D
Language : Polish
Default : No
Forced : No

Text #2
ID : 5
Format : UTF-8
Codec ID : S_TEXT/UTF8
Codec ID/Info : UTF-8 Plain Text
Title : napisy ENG 2D
Language : English
Default : No
Forced : No

Text #3
ID : 6
Format : PGS
Muxing mode : zlib
Codec ID : S_HDMV/PGS
Codec ID/Info : The same subtitle format used on BDs/HD-DVDs
Title : napisy PL 3D
Language : Polish
Default : No
Forced : No

Text #4
ID : 7
Format : PGS
Muxing mode : zlib
Codec ID : S_HDMV/PGS
Codec ID/Info : The same subtitle format used on BDs/HD-DVDs
Title : napisy ENG 3D
Language : English
Default : No
Forced : No

Dostępne napisy
Brak napisów
Szczegóły torrenta
Tracker http://pow7.com:80/announce
Multitracker [ Pokaż ]
Kategoria: » » » [Zgłoś błąd]
Dodane 03-10-2017
Podziękowali:
0 użytkowników 
Podziękuj!
Pokaż / Ukryj pliki:
Nazwa pliku Rozmiar
Gods.Of.Egypt.3D.PL.HOU.BDRip.1080p.Sonda.mkv 3.93 GB
Wicej Polskich Torrentów.desktop 0.13 KB
2 plików
Brak komentarzy...