Enable / Włącz Javascript
 Widok 
 Kategorie 
 Nitro Torrent w sieci 
 Top 10 użytkowników 
 Dziewczyna w sieci pająka - The Girl in the Spider's Web 2018 [WEB-DL.X264] [ENG] [R@KU]

Dziewczyna w sieci pająka - The Girl in the Spider's Web 2018 [WEB-DL.X264] [ENG] [R@KU] Dla elsasheart.com
Kategoria: » » »
Dodane: 16/01/2019
Rozmiar: 754.07 MB
Uploader: R@KU (7)
seed(ów): 15
leecher(ów): 3
Pobrane: 368
Komentarzy: 2
Pobierz Torrent Pobierz Torrent
Pobierz [Magnet] Pobierz [Magnet]

Obserwuj
Raportuj
Info
reżyseria: Fede Alvarez
scenariusz: Steven KnightFede Alvarez
gatunek: KryminałThriller
produkcja: KanadaNiemcySzwecjaUSAWielka Brytania
premiera: 26 października 2018 (Polska) 25 października 2018 (świat)
boxoffice: $34 260 972
nagrody: 1 nominacja
Opis
Młoda hakerka Lisbeth Salander oraz dziennikarz Mikael Blomkvist wpadają w sieć szpiegów, cyberprzestępców i skorumpowanych urzędników państwowych.
Obsada
Claire Foy
Sverrir Gudnason
Lakeith Stanfield
Dane Techniczne
General
Complete name                            : F:filmyDziewczyna[R@KU]The Girl In the Spiders WEB-DL.mp4
Format                                   : MPEG-4
Format profile                           : Base Media / Version 2
Codec ID                                 : mp42 (isom/iso2/avc1/mp41/mp42)
File size                                : 754 MiB
Duration                                 : 1 h 55 min
Overall bit rate mode                    : Variable
Overall bit rate                         : 914 kb/s
Writing application                      : IsoMedia File produced by RapidVideo.com

Video
ID                                       : 1
Format                                   : AVC
Format/Info                              : Advanced Video Codec
Format profile                           : High@L2.2
Format settings                          : CABAC / 2 Ref Frames
Format settings, CABAC                   : Yes
Format settings, RefFrames               : 2 frames
Codec ID                                 : avc1
Codec ID/Info                            : Advanced Video Coding
Duration                                 : 1 h 55 min
Bit rate mode                            : Variable
Bit rate                                 : 783 kb/s
Maximum bit rate                         : 1 200 kb/s
Width                                    : 854 pixels
Height                                   : 354 pixels
Display aspect ratio                     : 2.40:1
Frame rate mode                          : Constant
Frame rate                               : 23.976 (24000/1001) FPS
Color space                              : YUV
Chroma subsampling                       : 4:2:0
Bit depth                                : 8 bits
Scan type                                : Progressive
Bits/(Pixel*Frame)                       : 0.108
Stream size                              : 646 MiB (86%)
Language                                 : English
Tagged date                              : UTC 2019-01-16 20:07:58
Menus                                    : 3
Codec configuration box                  : avcC

Audio
ID                                       : 2
Format                                   : AAC LC
Format/Info                              : Advanced Audio Codec Low Complexity
Codec ID                                 : mp4a-40-2
Duration                                 : 1 h 55 min
Source duration                          : 1 h 55 min
Source_Duration_LastFrame                : -12 ms
Bit rate mode                            : Constant
Bit rate                                 : 128 kb/s
Channel(s)                               : 2 channels
Channel layout                           : L R
Sampling rate                            : 44.1 kHz
Frame rate                               : 43.066 FPS (1024 SPF)
Compression mode                         : Lossy
Stream size                              : 106 MiB (14%)
Source stream size                       : 106 MiB (14%)
Language                                 : English
Default                                  : Yes
Alternate group                          : 1
Tagged date                              : UTC 2019-01-16 20:07:58
Menus                                    : 3

Menu #1
ID                                       : 3
Codec ID                                 : text
Duration                                 : 1 h 55 min
Tagged date                              : UTC 2019-01-16 20:07:58
Menu For                                 : 1,2
00:00:00.000                             : 1
00:10:23.915                             : 2
00:16:32.867                             : 3
00:21:05.431                             : 4
00:27:34.445                             : 5
00:34:20.057                             : 6
00:41:41.039                             : 7
00:48:24.317                             : 8
00:58:39.181                             : 9
01:05:56.826                             : 10
01:10:31.975                             : 11
01:20:03.920                             : 12
01:27:18.895                             : 13
01:35:05.527                             : 14
01:38:04.122                             : 15
01:43:16.558                             : 16
Bit rate mode                            : VBR

Menu #2
00:00:00.000                             : 1
00:10:23.915                             : 2
00:16:32.867                             : 3
00:21:05.431                             : 4
00:27:34.445                             : 5
00:34:20.057                             : 6
00:41:41.039                             : 7
00:48:24.317                             : 8
00:58:39.181                             : 9
01:05:56.826                             : 10
01:10:31.975                             : 11
01:20:03.920                             : 12
01:27:18.895                             : 13
01:35:05.527                             : 14
01:38:04.122                             : 15
01:43:16.558                             : 16

Dostępne napisy
Brak napisów
Szczegóły torrenta
Tracker udp://tracker.opentrackr.org:1337/announce
Multitracker [ Pokaż ]
Kategoria: » » » [Zgłoś błąd]
Dodane 16-01-2019
Podziękowali:
3 użytkowników 
[ Pokaż ]
Podziękuj!
Pokaż / Ukryj pliki:
Nazwa pliku Rozmiar
Downloaded from elsasheart.com.txt.txt 0.00 KB
The Girl In the Spiders WEB-DL.mp4 754.07 MB
2 plików

<< Poprz.      Następna >>
1 - 2



lilu2 (2)
@ibanez: dziekuje za message
19/01/2019 04:51:32 # 0 0


ibanez (1)
brak napisów ale film świetny
17/01/2019 04:29:56 # 1 0

1 - 2
<< Poprz.      Następna >>