Enable / Włącz Javascript
 Widok 
 Kategorie 
 Nitro Torrent w sieci 
 Top 10 użytkowników 
 Gotham S05E02-04 [720p.WEB-DL.H.264.DD5.1] [Napisy PL]

Gotham S05E02-04 [720p.WEB-DL.H.264.DD5.1] [Napisy PL]
Kategoria: » » » »
Dodane: 01/02/2019
Rozmiar: 4.10 GB
Uploader: Lukarusi (1)
seed(ów): 0
leecher(ów): 0
Pobrane: 50
Komentarzy: 0
Pobierz Torrent Pobierz Torrent
Pobierz [Magnet] Pobierz [Magnet]

Obserwuj
Raportuj
Info

produkcja: USA
gatunek: Kryminał, Dramat
scenariusz: Bruno Heller, Bill Finger, Bob Kane
reżyseria: Danny Cannon, T.J. Scott, Eagle Egilsson
zdjęcia: Chris Norr, Crescenzo G.P. Notarile
muzyka: David E. Russo, Graeme Revell
czas trwania: ok. 44 min.

Opis

James Gordon jest synem byłego prokuratora okręgowego, a obecnie początkującym detektywem w policji miasta Gotham City, na czele której stoi kapitan Sara Essen. Zaręczony z Barbarą Kean policjant chce przywrócić miasto do czasów jakie znał z dzieciństwa. Zostaje on przydzielony do twardego i zuchwałego Harveya Bullocka. Obaj muszą rozwikłać sprawę, która wstrząsnęła miastem, jaką było brutalne morderstwo małżeństwa miejscowych milionerów, Thomasa i Marthy Wayne. Na miejscu zbrodni Gordon poznaje 12-letniego syna Wayne'ów, Bruce'a, który przeżył napad i był świadkiem całego zdarzenia. Młody detektyw nawiązuje więź z chłopcem i poruszony jego stratą przysięga, że odnajdzie sprawcę śmierci jego rodziców. Odtąd jedynym opiekunem Bruce'a zostaje lokaj rodziny Wayne'ów - Alfred, zaś Gordon balansując na granicy prawa musi stawić czoła szefowej gangu Fish Mooney. W trakcie śledztwa przyjdzie mu też spotkać szereg innych osób, które w przyszłości staną się superzłoczyńcami. Przyjaźń Gordona i osieroconego dziedzica fortuny Wayne'ów potrwa przez lata i będzie miała wpływ na decyzję chłopca o zostaniu mścicielem.

Obsada

Ben McKenzie - James Gordon
Donal Logue - Harvey Bullock
Robin Lord Taylor - Oswald Cobblepot
Erin Richards - Barbara Kean
Sean Pertwee - Alfred Pennyworth
Jada Pinkett Smith - Fish Mooney
David Mazouz - Bruce Wayne
Carmen Bicondova - Selina Kyle
Cory Michael Smith - Edward Nygma
Michael Chiklis - Nathaniel Barnes
Nicholas D'Agosto - Harvey Dent
Chris Chalk - Lucius Fox

Dane Techniczne

Format : Matroska
Format version : Version 4 / Version 2
File size : 1.37 GiB
Duration : 43 min 52 s
Overall bit rate : 4 461 kb/s
Encoded date : UTC 2019-02-01 13:54:49

Video
ID : 1
Format : AVC
Format/Info : Advanced Video Codec
Format profile : High@L3.1
Format settings : 2 Ref Frames
Format settings, CABAC : No
Format settings, ReFrames : 2 frames
Codec ID : V_MPEG4/ISO/AVC
Duration : 43 min 52 s
Bit rate : 4 076 kb/s
Width : 1 280 pixels
Height : 718 pixels
Display aspect ratio : 16:9
Frame rate mode : Constant
Frame rate : 23.976 (23976/1000) FPS
Color space : YUV
Chroma subsampling : 4:2:0
Bit depth : 8 bits
Scan type : Progressive
Bits/(Pixel*Frame) : 0.185
Stream size : 1.25 GiB (91%)
Default : Yes
Forced : Yes
Color range : Limited
Color primaries : BT.709
Transfer characteristics : BT.709
Matrix coefficients : BT.709

Audio
ID : 2
Format : AC-3
Format/Info : Audio Coding 3
Commercial name : Dolby Digital
Codec ID : A_AC3
Duration : 43 min 52 s
Bit rate mode : Constant
Bit rate : 384 kb/s
Channel(s) : 6 channels
Channel layout : L R C LFE Ls Rs
Sampling rate : 48.0 kHz
Frame rate : 31.250 FPS (1536 SPF)
Bit depth : 16 bits
Compression mode : Lossy
Stream size : 121 MiB (9%)
Language : English
Service kind : Complete Main
Default : Yes
Forced : Yes

Text
ID : 3
Format : UTF-8
Codec ID : S_TEXT/UTF8
Codec ID/Info : UTF-8 Plain Text
Duration : 42 min 51 s
Bit rate : 48 b/s
Count of elements : 542
Stream size : 15.3 KiB (0%)
Language : Polish
Default : Yes
Forced : Yes
Dostępne napisy
Brak napisów
Szczegóły torrenta
Tracker http://tracker.city9x.com:2710/announce
Multitracker [ Pokaż ]
Kategoria: » » » » [Zgłoś błąd]
Dodane 01-02-2019
Podziękowali:
0 użytkowników 
Podziękuj!
Pokaż / Ukryj pliki:
Nazwa pliku Rozmiar
Gotham S05E02 - Legend of the Dark Knightː Trespassers [720p.WEB-DL.H.264.DD5.1] [Napisy PL].mkv 1.37 GB
Gotham S05E02 - Legend of the Dark Knightː Trespassers [720p.WEB-DL.H.264.DD5.1] [Napisy PL].srt 36.39 KB
Gotham S05E03 - Legend of the Dark Knightː Penguin, Our Hero [720p.WEB-DL.H.264.DD5.1] [Napisy PL].mkv 1.36 GB
Gotham S05E03 - Legend of the Dark Knightː Penguin, Our Hero [720p.WEB-DL.H.264.DD5.1] [Napisy PL].srt 37.48 KB
Gotham S05E04 - Legend of the Dark Knightː Ruin [720p.WEB-DL.H.264.DD5.1] [Napisy PL].mkv 1.37 GB
Gotham S05E04 - Legend of the Dark Knightː Ruin [720p.WEB-DL.H.264.DD5.1] [Napisy PL].srt 36.02 KB
6 plików
Brak komentarzy...