Enable / Włącz Javascript
 Widok 
 Kategorie 
 Nitro Torrent w sieci 
 Top 10 użytkowników 
 Hitler's Circle of Evil - Sezon 1 [1080p.NF.WEB-DL.H.264.AAC2.0] [Lektor PL]

Hitler's Circle of Evil - Sezon 1 [1080p.NF.WEB-DL.H.264.AAC2.0] [Lektor PL] wielopaczka
Kategoria: » » » »
Dodane: 13/03/2018
Rozmiar: 28.82 GB
Uploader: Lukarusi (1)
seed(ów): 6
leecher(ów): 113
Pobrane: 110
Komentarzy: 0
Pobierz Torrent Pobierz Torrent
Pobierz [Magnet] Pobierz [Magnet]

Obserwuj
Raportuj
Info

produkcja: UK
gatunek: Dokument
twórca: Matthew Hinchcliffe, Simon Deeley, Vicky Matthews, Guy Smith, Ashley Morris, Chris Roberts
zdjęcia: Adrian Musto, Sashi Kissoon
czas trwania: ok. 52 min.

Opis

Pośród spisków, zdrad i sporów o władzę grono najbliższych Hitlerowi nazistowskich przywódców przejmuje władzę w III Rzeszy i planuje tragiczną przyszłość kraju.

Obsada

Alisdair Simpson
Henrik J?rgensen
James Lowe
Blake Scott
Peter Turnbull
Jonathon Michaels
Steve Munroe
Conan Sweeny
Chris Wilson
Liam Shipton
Mairead Armstrong
Heather Cairns
Daniel Chapple
Alex Dee
Ty Hurley

Dane Techniczne

Format : Matroska
Format version : Version 4 / Version 2
File size : 3.25 GiB
Duration : 51 min 57 s
Overall bit rate : 8 957 kb/s
Encoded date : UTC 2018-03-13 18:18:28

Video
ID : 1
Format : AVC
Format/Info : Advanced Video Codec
Format profile : Main@L4
Format settings, CABAC : Yes
Format settings, RefFrames : 2 frames
Format settings, GOP : M=1, N=13
Codec ID : V_MPEG4/ISO/AVC
Duration : 51 min 57 s
Bit rate : 8 858 kb/s
Width : 1 920 pixels
Height : 1 080 pixels
Display aspect ratio : 16:9
Frame rate mode : Constant
Frame rate : 25.000 FPS
Color space : YUV
Chroma subsampling : 4:2:0
Bit depth : 8 bits
Scan type : Progressive
Bits/(Pixel*Frame) : 0.171
Stream size : 3.21 GiB (99%)

Audio
ID : 2
Format : AAC
Format/Info : Advanced Audio Codec
Format profile : HE-AAC / LC
Codec ID : A_AAC
Duration : 51 min 57 s
Bit rate : 96.0 kb/s
Channel(s) : 2 channels
Channel positions : Front: L R
Sampling rate : 48.0 kHz / 24.0 kHz
Frame rate : 23.438 FPS (1024 SPF)
Compression mode : Lossy
Stream size : 35.7 MiB (1%)
Language : Polish
Dostępne napisy
Brak napisów
Szczegóły torrenta
Tracker http://tracker.vanitycore.co:6969/announce
Multitracker [ Pokaż ]
Kategoria: » » » » [Zgłoś błąd]
Dodane 13-03-2018
Podziękowali:
0 użytkowników 
Podziękuj!
Pokaż / Ukryj pliki:
Nazwa pliku Rozmiar
Hitler's Circle of Evil S01E01 - Bohaterowie i wyrzutki [1080p.NF.WEB-DL.H.264.AAC2.0] [Lektor PL].mkv 2.09 GB
Hitler's Circle of Evil S01E02 - Przegrupowanie [1080p.NF.WEB-DL.H.264.AAC2.0] [Lektor PL].mkv 2.88 GB
Hitler's Circle of Evil S01E03 - Upadek Röhma [1080p.NF.WEB-DL.H.264.AAC2.0] [Lektor PL].mkv 2.75 GB
Hitler's Circle of Evil S01E04 - Wzrost antysemityzmu [1080p.NF.WEB-DL.H.264.AAC2.0] [Lektor PL].mkv 2.19 GB
Hitler's Circle of Evil S01E05 - Klub z Berghofu [1080p.NF.WEB-DL.H.264.AAC2.0] [Lektor PL].mkv 4.57 GB
Hitler's Circle of Evil S01E06 - Szaleństwo Rudolfa Hessa [1080p.NF.WEB-DL.H.264.AAC2.0] [Lektor PL].mkv 2.67 GB
Hitler's Circle of Evil S01E07 - Potęga i upadek Reinharda Heydricha [1080p.NF.WEB-DL.H.264.AAC2.0] [Lektor PL].mkv 3.25 GB
Hitler's Circle of Evil S01E08 - Czas pochlebców [1080p.NF.WEB-DL.H.264.AAC2.0] [Lektor PL].mkv 2.95 GB
Hitler's Circle of Evil S01E09 - Początek końca [1080p.NF.WEB-DL.H.264.AAC2.0] [Lektor PL].mkv 2.66 GB
Hitler's Circle of Evil S01E10 - Koniec [1080p.NF.WEB-DL.H.264.AAC2.0] [Lektor PL].mkv 2.80 GB
10 plików
Brak komentarzy...