Enable / Włącz Javascript
 Widok 
 Kategorie 
 Nitro Torrent w sieci 
 Top 10 użytkowników 
 Mr. Mercedes S02E01 - Missed You [1080p.AMZN.WEB-DL.H.264.DDP5.1] [Napisy PL]

Mr. Mercedes S02E01 - Missed You [1080p.AMZN.WEB-DL.H.264.DDP5.1] [Napisy PL]
Kategoria: » » » »
Dodane: 26/08/2018
Rozmiar: 2.64 GB
Uploader: Lukarusi (1)
seed(ów): 15
leecher(ów): 7
Pobrane: 104
Komentarzy: 0
Pobierz Torrent Pobierz Torrent
Pobierz [Magnet] Pobierz [Magnet]

Obserwuj
Raportuj
Info

produkcja: USA
gatunek: Thriller, Kryminał
reżyseria: Jack Bender, John David Coles, Laura Innes
scenariusz: Stephen King, David E. Kelley, Sophie Owens-Bender
zdjęcia: Armando Salas, Yaron Levy
dźwięk: Mark Allen, Jeffree Bloomer
czas trwania: ok. 60 min.

Opis

Serial jest oparty na powieści Stephena Kinga pod tym samym tytułem. Fabuła skupia się na mordercy, który dręczy emerytowanego detektywa policyjnego serią listów i maili, zmuszając mężczyznę do rozpoczęcia prywatnej krucjaty. Były policjant chce, by morderca został schwytany, zanim popełni kolejne przestępstwo.

Obsada

Brendan Gleeson - Bill Hodges
Harry Treadaway - Brady Hartsfield
Kelly Lynch - Deborah Hartsfield
Jharrel Jerome - Jerome Robinson
Ed Anderson - Paulie
Justine Lupe - Holly Gibney
Ziggy Bender - Odell
David Furr - Josh
Lindsay Ayliffe - Art Gibney

Dane Techniczne

Format : Matroska
Format version : Version 4 / Version 2
File size : 2.64 GiB
Duration : 59 min 58 s
Overall bit rate : 6 296 kb/s
Encoded date : UTC 2018-08-26 10:32:03

Video
ID : 1
Format : AVC
Format/Info : Advanced Video Codec
Format profile : High@L4
Format settings : CABAC / 4 Ref Frames
Format settings, CABAC : Yes
Format settings, ReFrames : 4 frames
Codec ID : V_MPEG4/ISO/AVC
Duration : 59 min 58 s
Bit rate : 5 654 kb/s
Width : 1 920 pixels
Height : 1 080 pixels
Display aspect ratio : 16:9
Frame rate mode : Constant
Frame rate : 23.976 (24000/1001) FPS
Color space : YUV
Chroma subsampling : 4:2:0
Bit depth : 8 bits
Scan type : Progressive
Bits/(Pixel*Frame) : 0.114
Stream size : 2.37 GiB (90%)
Default : Yes
Forced : Yes
Color range : Limited
Color primaries : BT.709
Transfer characteristics : BT.709
Matrix coefficients : BT.709

Audio
ID : 2
Format : E-AC-3
Format/Info : Enhanced Audio Coding 3
Codec ID : A_EAC3
Duration : 59 min 58 s
Bit rate mode : Constant
Bit rate : 640 kb/s
Channel(s) : 6 channels
Channel positions : Front: L C R, Side: L R, LFE
Sampling rate : 48.0 kHz
Frame rate : 187.500 FPS (256 SPF)
Compression mode : Lossy
Stream size : 275 MiB (10%)
Language : English
Service kind : Complete Main
Default : Yes
Forced : Yes

Text
ID : 3
Format : UTF-8
Codec ID : S_TEXT/UTF8
Codec ID/Info : UTF-8 Plain Text
Duration : 57 min 35 s
Bit rate : 43 b/s
Count of elements : 628
Stream size : 18.5 KiB (0%)
Language : Polish
Default : Yes
Forced : Yes
Dostępne napisy
Brak napisów
Szczegóły torrenta
Tracker http://tracker.vanitycore.co:6969/announce
Multitracker [ Pokaż ]
Kategoria: » » » » [Zgłoś błąd]
Dodane 26-08-2018
Podziękowali:
1 użytkownik 
[ Pokaż ]
Podziękuj!
Pokaż / Ukryj pliki:
Nazwa pliku Rozmiar
Mr. Mercedes S02E01 - Missed You [1080p.AMZN.WEB-DL.H.264.DDP5.1] [Napisy PL].mkv 2.64 GB
Mr. Mercedes S02E01 - Missed You [1080p.AMZN.WEB-DL.H.264.DDP5.1] [Napisy PL].srt 42.96 KB
2 plików
Brak komentarzy...