Enable / Włącz Javascript
 Widok 
 Kategorie 
 Nitro Torrent w sieci 
 Top 10 użytkowników 
 Mr. Mercedes S02E03 - You Can Go Home Now [1080p.AMZN.WEB-DL.H.264.DDP5.1] [Napisy PL]

Mr. Mercedes S02E03 - You Can Go Home Now [1080p.AMZN.WEB-DL.H.264.DDP5.1] [Napisy PL]
Kategoria: » » » »
Dodane: 20/09/2018
Rozmiar: 2.50 GB
Uploader: Lukarusi (1)
seed(ów): 29
leecher(ów): 27
Pobrane: 68
Komentarzy: 0
Pobierz Torrent Pobierz Torrent
Pobierz [Magnet] Pobierz [Magnet]

Obserwuj
Raportuj
Info

produkcja: USA
gatunek: Thriller, Kryminał
reżyseria: Jack Bender, John David Coles, Laura Innes
scenariusz: Stephen King, David E. Kelley, Sophie Owens-Bender
zdjęcia: Armando Salas, Yaron Levy
dźwięk: Mark Allen, Jeffree Bloomer
czas trwania: ok. 56 min.

Opis

Serial jest oparty na powieści Stephena Kinga pod tym samym tytułem. Fabuła skupia się na mordercy, który dręczy emerytowanego detektywa policyjnego serią listów i maili, zmuszając mężczyznę do rozpoczęcia prywatnej krucjaty. Były policjant chce, by morderca został schwytany, zanim popełni kolejne przestępstwo.

Obsada

Brendan Gleeson - Bill Hodges
Harry Treadaway - Brady Hartsfield
Kelly Lynch - Deborah Hartsfield
Jharrel Jerome - Jerome Robinson
Ed Anderson - Paulie
Justine Lupe - Holly Gibney
Ziggy Bender - Odell
David Furr - Josh
Lindsay Ayliffe - Art Gibney

Dane Techniczne

Format : Matroska
Format version : Version 4 / Version 2
File size : 2.50 GiB
Duration : 56 min 13 s
Overall bit rate : 6 369 kb/s
Encoded date : UTC 2018-09-20 14:30:39

Video
ID : 1
Format : AVC
Format/Info : Advanced Video Codec
Format profile : High@L4
Format settings : CABAC / 4 Ref Frames
Format settings, CABAC : Yes
Format settings, ReFrames : 4 frames
Codec ID : V_MPEG4/ISO/AVC
Duration : 56 min 13 s
Bit rate : 5 727 kb/s
Width : 1 920 pixels
Height : 1 080 pixels
Display aspect ratio : 16:9
Frame rate mode : Constant
Frame rate : 23.976 (24000/1001) FPS
Color space : YUV
Chroma subsampling : 4:2:0
Bit depth : 8 bits
Scan type : Progressive
Bits/(Pixel*Frame) : 0.115
Stream size : 2.25 GiB (90%)
Default : Yes
Forced : Yes
Color range : Limited
Color primaries : BT.709
Transfer characteristics : BT.709
Matrix coefficients : BT.709

Audio
ID : 2
Format : E-AC-3
Format/Info : Enhanced Audio Coding 3
Codec ID : A_EAC3
Duration : 56 min 13 s
Bit rate mode : Constant
Bit rate : 640 kb/s
Channel(s) : 6 channels
Channel positions : Front: L C R, Side: L R, LFE
Sampling rate : 48.0 kHz
Frame rate : 187.500 FPS (256 SPF)
Compression mode : Lossy
Stream size : 257 MiB (10%)
Language : English
Service kind : Complete Main
Default : Yes
Forced : Yes

Text
ID : 3
Format : UTF-8
Codec ID : S_TEXT/UTF8
Codec ID/Info : UTF-8 Plain Text
Duration : 52 min 53 s
Bit rate : 51 b/s
Count of elements : 632
Stream size : 19.8 KiB (0%)
Language : Polish
Default : Yes
Forced : Yes
Dostępne napisy
Brak napisów
Szczegóły torrenta
Tracker http://tracker.vanitycore.co:6969/announce
Multitracker [ Pokaż ]
Kategoria: » » » » [Zgłoś błąd]
Dodane 20-09-2018
Podziękowali:
0 użytkowników 
Podziękuj!
Pokaż / Ukryj pliki:
Nazwa pliku Rozmiar
Mr. Mercedes S02E03 - You Can Go Home Now [1080p.AMZN.WEB-DL.H.264.DDP5.1] [Napisy PL].mkv 2.50 GB
Mr. Mercedes S02E03 - You Can Go Home Now [1080p.AMZN.WEB-DL.H.264.DDP5.1] [Napisy PL].srt 44.34 KB
2 plików
Brak komentarzy...