Enable / Włącz Javascript
 Widok 
 Kategorie 
 Nitro Torrent w sieci 
 Top 10 użytkowników 
 Noe: Wybrany przez Boga 3D - Noah 3D *2014* [1080p.3D.Half.Over-Under.DTS 5.1.AC3.BluRay.x264-SONDA] [Lektor,Dubbing i Napisy PL]

Noe: Wybrany przez Boga 3D - Noah 3D *2014* [1080p.3D.Half.Over-Under.DTS 5.1.AC3.BluRay.x264-SONDA] [Lektor,Dubbing i Napisy PL]
Kategoria: » » »
Dodane: 03/10/2017
Rozmiar: 15.56 GB
Uploader: gawroniasty (4)
seed(ów): 0
leecher(ów): 0
Pobrane: 11
Komentarzy: 0
Pobierz Torrent Pobierz Torrent
Pobierz [Magnet] Pobierz [Magnet]

Obserwuj
Raportuj
F_INFO

*   Oryginalny tytuł:  Noah
*   Polski tytuł:  Noe: Wybrany przez Boga
*   Produkcja:  USA
*   Data premiery:  28 marca 2014  (Polska)  10 marca 2014  (świat)
*   Gatunek:  Fantasy
*   Czas trwania:  2 godz. 18 min.
*   Reżyseria:  Darren Aronofsky
*   Scenariusz:  Darren Aronofsky, Ari Handel

F_O_FILMIE

http://www.filmweb.pl/film/Noe%3A+Wybrany+przez+Boga-2014-622318
http://www.imdb.com/title/tt1959490/
http://www.youtube.com/watch?v=_OSaJE2rqxU

F_OPIS

Zainspirowany biblijną historią o sile ducha, poświęceniu i nadziei Darren Aronofsky przekłada na język filmu osobistą wizję opowieści o Noem. Russell Crowe wciela się w niej w postać człowieka, który został wybrany do podjęcia wielkiej misji uratowania rodzaju ludzkiego oraz zwierząt przed apokaliptycznym potopem, który ma zniszczyć zepsuty świat. Film podejmuje towarzyszące człowiekowi od zarania dziejów tematy dobra i zła, zniszczenia i miłosierdzia, nadziei oraz rodziny.

F_OBSADA

*     Russell Crowe   ...   Noe
*     Jennifer Connelly   ...   Naameh
*     Ray Winstone   ...   Tubal-Kain
*     Anthony Hopkins   ...   Matuzalem
*     Emma Watson   ...   Ila
*     Logan Lerman   ...   Cham
*     Douglas Booth   ...   Sem
*     Nick Nolte   ...   Szemhazaj  (głos)

F_DANE

General
Format : Matroska
Format version : Version 2
File size : 15.6 GiB
Duration : 2h 17mn
Overall bit rate mode : Variable
Overall bit rate : 16.2 Mbps
Movie name : Noah_3D.2014.H-OU.1080p.Bluray3D Rip by Sonda [AT-Team]
Encoded date : UTC 2015-04-04 13:08:21
Writing application : mkvmerge v5.7.0 ('The Whirlwind') built on Jul 8 2012 20:08:51
Writing library : libebml v1.2.3 + libmatroska v1.3.0

Video
ID : 1
Format : AVC
Format/Info : Advanced Video Codec
Format profile : High@L4.1
Format settings, CABAC : Yes
Format settings, ReFrames : 2 frames
Codec ID : V_MPEG4/ISO/AVC
Duration : 2h 17mn
Bit rate mode : Variable
Bit rate : 12.7 Mbps
Maximum bit rate : 19.5 Mbps
Width : 1 920 pixels
Height : 1 080 pixels
Display aspect ratio : 1.85:1
Frame rate mode : Constant
Frame rate : 23.976 fps
Color space : YUV
Chroma subsampling : 4:2:0
Bit depth : 8 bits
Scan type : Progressive
Bits/(Pixel*Frame) : 0.255
Stream size : 12.2 GiB (78%)
Title : Rip by Sonda
Default : Yes
Forced : No

Audio #1
ID : 2
Format : AC-3
Format/Info : Audio Coding 3
Mode extension : CM (complete main)
Format settings, Endianness : Big
Codec ID : A_AC3
Duration : 2h 17mn
Bit rate mode : Constant
Bit rate : 384 Kbps
Channel(s) : 6 channels
Channel positions : Front: L C R, Side: L R, LFE
Sampling rate : 48.0 KHz
Bit depth : 16 bits
Compression mode : Lossy
Stream size : 379 MiB (2%)
Title : AC3 5.1 Lektor PL
Language : Polish
Default : Yes
Forced : Yes

Audio #2
ID : 3
Format : AC-3
Format/Info : Audio Coding 3
Mode extension : CM (complete main)
Format settings, Endianness : Big
Codec ID : A_AC3
Duration : 2h 17mn
Bit rate mode : Constant
Bit rate : 640 Kbps
Channel(s) : 6 channels
Channel positions : Front: L C R, Side: L R, LFE
Sampling rate : 48.0 KHz
Bit depth : 16 bits
Compression mode : Lossy
Stream size : 631 MiB (4%)
Title : AC3 5.1 Dubbing PL
Language : Polish
Default : No
Forced : No

Audio #3
ID : 4
Format : AC-3
Format/Info : Audio Coding 3
Mode extension : CM (complete main)
Format settings, Endianness : Big
Codec ID : A_AC3
Duration : 2h 17mn
Bit rate mode : Constant
Bit rate : 640 Kbps
Channel(s) : 6 channels
Channel positions : Front: L C R, Side: L R, LFE
Sampling rate : 48.0 KHz
Bit depth : 16 bits
Compression mode : Lossy
Stream size : 631 MiB (4%)
Title : AC3 5.1 ENG
Language : English
Default : No
Forced : No

Audio #4
ID : 5
Format : DTS
Format/Info : Digital Theater Systems
Mode : 16
Format settings, Endianness : Big
Codec ID : A_DTS
Duration : 2h 17mn
Bit rate mode : Constant
Bit rate : 1 509 Kbps
Channel(s) : 6 channels
Channel positions : Front: L C R, Side: L R, LFE
Sampling rate : 48.0 KHz
Bit depth : 24 bits
Compression mode : Lossy
Stream size : 1.45 GiB (9%)
Title : DTS 5.1 ENG
Language : English
Default : No
Forced : No

Text
ID : 6
Format : PGS
Muxing mode : zlib
Codec ID : S_HDMV/PGS
Codec ID/Info : The same subtitle format used on BDs/HD-DVDs
Title : Napisy 3D
Language : Polish
Default : No
Forced : No


Source:
A/V-HDAccess
Dubbing PL- BD
Lektor PL- TV





Dostępne napisy
Brak napisów
Szczegóły torrenta
Tracker http://tracker.filetracker.pl:8089/announce
Multitracker [ Pokaż ]
Kategoria: » » » [Zgłoś błąd]
Dodane 03-10-2017
Podziękowali:
0 użytkowników 
Podziękuj!
Pokaż / Ukryj pliki:
Nazwa pliku Rozmiar
! Chcesz mieć TO szybciej - zapraszamy-KLIK.url 0.11 KB
INFO.txt 16.18 KB
Noah_3D.2014.PL.ENG.H-OU.1080p(Sonda).mkv 15.56 GB
Noah_3D.2014.PL.ENG.H-OU.1080p(Sonda).srt 57.95 KB
Torrent downloaded from FileTracker.pl.txt 0.05 KB
Uwaga ważne,ZOBACZ NAS!!.jpg 703.60 KB
6 plików
Brak komentarzy...