Enable / Włącz Javascript
 Widok 
 Kategorie 
 Nitro Torrent w sieci 
 Top 10 użytkowników 
 Nowa ziemia 3D(OU) - Nova zembla 3D *2011*[mini-HD.1080p.Over-Under.AC3.BluRay.x264-SONDA] [Lektor PL]

Nowa ziemia 3D(OU) - Nova zembla 3D *2011*[mini-HD.1080p.Over-Under.AC3.BluRay.x264-SONDA] [Lektor PL]
Kategoria: » » »
Dodane: 03/10/2017
Rozmiar: 3.99 GB
Uploader: elsasheart.com❱ Wędrowiec
seed(ów): 0
leecher(ów): 0
Pobrane: 4
Komentarzy: 0
Pobierz Torrent Pobierz Torrent
Pobierz [Magnet] Pobierz [Magnet]

Obserwuj
Raportuj
Kopia mini-HD 1080p = 3,99 GB

gatunek: Dramat historyczny
produkcja: Holandia
premiera: 23 listopada 2011 (świat)
reżyseria: Reinout Oerlemans
scenariusz: Hugo Heinen

Obsada:
Doutzen Kroes - Catharina Plancius
Derek de Lint - Willem Barentsz
Jan Decleir - Petrus Plancius
Robert de Hoog - Gerrit de Veer
Semmy Schilt - Claes

Opis:
Film opowiada prawdziwą historię legendarnej misji, która miała za zadanie znaleźć nowy szlak handlowy do Azji wiodący przez biegun północny. Holenderska flotylla opuszcza port w Amsterdamie i kieruje się na północ. W wyprawie biorą udział dwa okręty. W momencie gdy odwrót jest jeszcze możliwy kapitan pierwszego żaglowca podejmuje decyzję o powrocie. Natomiast okręt kapitana Willema Barentsza (Derek de Lint), kontynuuje żeglugę. Statek zostaje zatrzymany przez lód w okolicy arktycznej wyspy Nova Zembla. Zdana na siebie załoga musi walczyć o przeżycie w niezwykle trudnych zimowych warunkach.

BluRay 3D Rip (OU) - SONDA
===========================

General
Format : Matroska
Format version : Version 2
File size : 3.99 GiB
Duration : 1h 49mn
Encoding type : 2 pass
Overall bit rate : 5 239 Kbps
Movie name : NOVA_ZEMBLA_3D.Bluray3D Rip by Sonda [AT-Team]
Encoded date : UTC 2014-02-22 15:14:22
Writing application : mkvmerge v5.7.0 ('The Whirlwind') built on Jul 8 2012 20:08:51
Writing library : libebml v1.2.3 + libmatroska v1.3.0

Video
ID : 1
Format : AVC
Format/Info : Advanced Video Codec
Format profile : High@L4.1
Format settings, CABAC : Yes
Format settings, ReFrames : 2 frames
Codec ID : V_MPEG4/ISO/AVC
Duration : 1h 49mn
Bit rate : 4 687 Kbps
Width : 1 920 pixels
Height : 1 080 pixels
Display aspect ratio : 16:9 (2.39:1)
Frame rate mode : Constant
Frame rate : 23.976 fps
Color space : YUV
Chroma subsampling : 4:2:0
Bit depth : 8 bits
Scan type : Progressive
Bits/(Pixel*Frame) : 0.094
Stream size : 3.57 GiB (89%)
Title : BluRay 3D Rip by Sonda encoding 2 pass
Writing library : x264 core
Default : Yes
Forced : No
Color primaries : BT.709
Transfer characteristics : BT.709
Matrix coefficients : BT.709

Audio
ID : 2
Format : AC-3
Format/Info : Audio Coding 3
Mode extension : CM (complete main)
Format settings, Endianness : Big
Codec ID : A_AC3
Duration : 1h 49mn
Bit rate mode : Constant
Bit rate : 448 Kbps
Channel(s) : 6 channels
Channel positions : Front: L C R, Side: L R, LFE
Sampling rate : 48.0 KHz
Bit depth : 16 bits
Compression mode : Lossy
Stream size : 350 MiB (9%)
Title : AC3 5.1 Lektor PL
Language : Polish
Default : Yes
Forced : No

Menu
00:00:00.000 : :00:00:00.000
00:11:33.359 : :00:11:33.359
00:23:33.537 : :00:23:33.537
00:40:27.550 : :00:40:27.550
00:51:30.504 : :00:51:30.504
01:04:01.671 : :01:04:01.671
01:13:14.807 : :01:13:14.807
01:30:20.915 : :01:30:20.915
01:43:57.273 : :01:43:57.273

Dostępne napisy
Brak napisów
Szczegóły torrenta
Tracker http://tracker.aletorrenty.pl:2710/announce
Multitracker [ Pokaż ]
Kategoria: » » » [Zgłoś błąd]
Dodane 03-10-2017
Podziękowali:
0 użytkowników 
Podziękuj!
Pokaż / Ukryj pliki:
Nazwa pliku Rozmiar
NOVA_ZEMBLA_3D_miniHD(Sonda).mkv 3.99 GB
AT-TEAM old movie.jpg 140.78 KB
b3_novazembla.jpg 40.13 KB
AT-TEAM.jpg 36.66 KB
Read iNFO.txt 2.07 KB
Ale Torrenty Team enjoy !.url 0.11 KB
6 plików
Brak komentarzy...