Enable / Włącz Javascript
 Widok 
 Kategorie 
 Nitro Torrent w sieci 
 Top 10 użytkowników 
 Pompeje 3D - Pompeii *2014* [1080p.3D.Half.Over-Under.DTS-HD MA.5.1.AC3.BluRay.x264-SONDA] [Lektor i Napisy PL] [ENG] [AT-TEAM]

Pompeje 3D - Pompeii *2014* [1080p.3D.Half.Over-Under.DTS-HD MA.5.1.AC3.BluRay.x264-SONDA] [Lektor i Napisy PL] [ENG] [AT-TEAM]
Kategoria: » » »
Dodane: 03/10/2017
Rozmiar: 12.96 GB
Uploader: sonda (1)
seed(ów): 0
leecher(ów): 0
Pobrane: 20
Komentarzy: 0
Pobierz Torrent Pobierz Torrent
Pobierz [Magnet] Pobierz [Magnet]

Obserwuj
Raportuj
[Oryginalny obrazek]


Film w wersji 3D Over-Under.
Do odtworzenia filmu WYMAGANY odpowiedni sprzęt (TV 3D)
==========================================

gatunek: Dramat,Akcja
produkcja: Kanada,Niemcy,USA
premiera: 21 lutego 2014 (Polska) 18 lutego 2014 (świat)
reżyseria: Paul W.S. Anderson
scenariusz: Janet Scott Batchler,Lee Batchler,Julian Fellowes,Michael Robert Johnson

http://www.imdb.com/title/tt1921064/

Obsada:

Kit Harington ... Milo
Emily Browning ... Cassia
Kiefer Sutherland ... Corvus
Adewale Akinnuoye-Agbaje ... Atticus
Carrie-Anne Moss ... Aurelia
Jared Harris ... Severus

Opis:

Jest 79 rok naszej ery. Rzymskie miasto Pompeje znajduje się w rozkwicie i na pozór nic nie zapowiada nadchodzącej katastrofy. Milo, niewolnik i gladiator, przybywa do miasta, by stoczyć walkę, która może dać mu wolność i prawo do ubiegania się o rękę ukochanej Flavii. Jego szanse są nikłe, bo dziewczyna została już przeznaczona skorumpowanemu rzymskiemu generałowi. Wkrótce jednak potęga natury odmieni losy wszystkich mieszkańców Pompei. Kiedy Wezuwiusz wybucha, wyrzucając z siebie potoki śmiercionośnej lawy, Milo musi wydostać się z areny, aby uratować życie ukochanej kobiety, podczas gdy majestatyczne Pompeje pochłania żywioł.

Storyline:

Set in 79 A.D., POMPEII tells the epic story of Milo (Kit Harington), a slave turned invincible gladiator who finds himself in a race against time to save his true love Cassia (Emily Browning), the beautiful daughter of a wealthy merchant who has been unwillingly betrothed to a corrupt Roman Senator. As Mount Vesuvius erupts in a torrent of blazing lava, Milo must fight his way out of the arena in order to save his beloved as the once magnificent Pompeii crumbles around him.

Screenshot:

[Oryginalny obrazek]

[Oryginalny obrazek]

[Oryginalny obrazek]

[Oryginalny obrazek]



Dane techniczne:

General
Format                                   : Matroska
Format version                           : Version 2
File size                                : 13.0 GiB
Duration                                 : 1h 44mn
Overall bit rate mode                    : Variable
Overall bit rate                         : 17.7 Mbps
Movie name                               : Pompeii.3D.2014.PL.H-OU.1080p.BDRip.Sonda [AT-Team]
Encoded date                             : UTC 2016-03-28 08:52:52
Writing application                      : mkvmerge v5.7.0 ('The Whirlwind') built on Jul  8 2012 20:08:51
Writing library                          : libebml v1.2.3 + libmatroska v1.3.0

Video
ID                                       : 1
Format                                   : AVC
Format/Info                              : Advanced Video Codec
Format profile                           : High@L4.1
Format settings, CABAC                   : Yes
Format settings, ReFrames                : 4 frames
Codec ID                                 : V_MPEG4/ISO/AVC
Duration                                 : 1h 44mn
Nominal bit rate                         : 12.5 Mbps
Width                                    : 1 920 pixels
Height                                   : 1 080 pixels
Display aspect ratio                     : 16:9 (2.39:1)
Frame rate mode                          : Constant
Frame rate                               : 23.976 fps
Color space                              : YUV
Chroma subsampling                       : 4:2:0
Bit depth                                : 8 bits
Scan type                                : Progressive
Bits/(Pixel*Frame)                       : 0.251
Title                                    : Rip by Sonda
Writing library                          : x264 core
Encoding settings                        : cabac=1 / ref=4 / deblock=1:-1:-1 / rc=2pass
Default                                  : Yes
Forced                                   : No

Audio #1
ID                                       : 2
Format                                   : AC-3
Format/Info                              : Audio Coding 3
Mode extension                           : CM (complete main)
Format settings, Endianness              : Big
Codec ID                                 : A_AC3
Duration                                 : 1h 44mn
Bit rate mode                            : Constant
Bit rate                                 : 448 Kbps
Channel count                            : 6 channels
Channel positions                        : Front: L C R, Side: L R, LFE
Sampling rate                            : 48.0 KHz
Bit depth                                : 16 bits
Compression mode                         : Lossy
Stream size                              : 336 MiB (3%)
Title                                    : AC3 5.1 Lektor PL
Language                                 : Polish
Default                                  : Yes
Forced                                   : Yes

Audio #2
ID                                       : 3
Format                                   : AC-3
Format/Info                              : Audio Coding 3
Mode extension                           : CM (complete main)
Format settings, Endianness              : Big
Codec ID                                 : A_AC3
Duration                                 : 1h 44mn
Bit rate mode                            : Constant
Bit rate                                 : 640 Kbps
Channel count                            : 6 channels
Channel positions                        : Front: L C R, Side: L R, LFE
Sampling rate                            : 48.0 KHz
Bit depth                                : 16 bits
Compression mode                         : Lossy
Stream size                              : 481 MiB (4%)
Title                                    : AC3 5.1
Language                                 : English
Default                                  : No
Forced                                   : No

Audio #3
ID                                       : 4
Format                                   : DTS
Format/Info                              : Digital Theater Systems
Format profile                           : MA / Core
Mode                                     : 16
Format settings, Endianness              : Big
Codec ID                                 : A_DTS
Duration                                 : 1h 44mn
Bit rate mode                            : Variable
Bit rate                                 : 4077 / 1 509 Kbps
Channel count                            : 6 channels
Channel positions                        : Front: L C R, Side: L R, LFE
Sampling rate                            : 48.0 KHz
Bit depth                                : 24 bits
Compression mode                         : Lossless / Lossy
Title                                    : DTS-HD MA 5.1
Language                                 : English
Default                                  : No
Forced                                   : No

Text
ID                                       : 5
Format                                   : PGS
Muxing mode                              : zlib
Codec ID                                 : S_HDMV/PGS
Codec ID/Info                            : The same subtitle format used on BDs/HD-DVDs
Title                                    : Napisy PL 3D
Language                                 : Polish
Default                                  : No
Forced                                   : No

Source:
A/V-Pompeii (2014) 1080p [2D/3D] BD-Remux
Lektor PL - DVD
Thanks - Sonda





.:: Sonda ::.


Dostępne napisy
Brak napisów
Szczegóły torrenta
Tracker http://tracker.torrenty.org:6969/announce
Multitracker [ Pokaż ]
Kategoria: » » » [Zgłoś błąd]
Dodane 03-10-2017
Podziękowali:
0 użytkowników 
Podziękuj!
Pokaż / Ukryj pliki:
Nazwa pliku Rozmiar
AT-TEAM/Upload by Sonda [AT-TEAM].jpg 45.62 KB
AT-TEAM/Read iNFO.txt 2.07 KB
AT-TEAM/Ale Torrenty Team enjoy !.url 0.11 KB
info/Torrent downloaded from Sonda torrents at aletorrenty.pl.txt 0.38 KB
info/Torrent downloaded from Sonda torrents at BTS.to.txt 0.11 KB
info/Torrent downloaded from Sonda torrents at AhaShare.com.txt 0.06 KB
info/Torrent downloaded from sonda000 torrents at demonoid.ph.txt 0.02 KB
Pompeii.3D.2014.PL.H-OU.1080p.BDRip.Sonda.mkv 12.96 GB
Pompeii Blu-ray 3D.jpg 296.41 KB
Pompeii.3D.2014.PL.H-OU.1080p.BDRip.Sonda.srt 43.47 KB
photothumb.db 10.00 KB
11 plików
Brak komentarzy...