Enable / Włącz Javascript
 Widok 
 Kategorie 
 Nitro Torrent w sieci 
 Top 10 użytkowników 
 Pompeje 3D(OU) - Pompeii 3D *2014* [1080p.Half.Over-Under.DTS-HD MA.5.1.AC3.BluRay.x264-SONDA] [Lektor i Napisy PL]

Pompeje 3D(OU) - Pompeii 3D *2014* [1080p.Half.Over-Under.DTS-HD MA.5.1.AC3.BluRay.x264-SONDA] [Lektor i Napisy PL]
Kategoria: » » »
Dodane: 03/10/2017
Rozmiar: 11.88 GB
Uploader: elsasheart.com❱ Wędrowiec
seed(ów): 0
leecher(ów): 0
Pobrane: 6
Komentarzy: 0
Pobierz Torrent Pobierz Torrent
Pobierz [Magnet] Pobierz [Magnet]

Obserwuj
Raportuj

Film w wersji 3D Over-Under.
Do odtworzenia filmu WYMAGANY odpowiedni sprzęt (TV 3D)
=============================================

Blu-ray http://www.blu-ray.com/movies/Pompeii-3D-Blu-ray/100701/


gatunek: Dramat,Akcja
produkcja: Kanada,Niemcy,USA
premiera: 21 lutego 2014 (Polska) 18 lutego 2014 (świat)
reżyseria: Paul W.S. Anderson
scenariusz: Janet Scott Batchler,Lee Batchler,Julian Fellowes,Michael Robert Johnson

Obsada:
Kit Harington...Milo
Emily Browning...Cassia
Kiefer Sutherland...Corvus
Adewale Akinnuoye-Agbaje...Atticus
Carrie-Anne Moss...Aurelia
Jared Harris...Severus

Opis:
Jest 79 rok naszej ery. Rzymskie miasto Pompeje znajduje się w rozkwicie i na pozór nic nie zapowiada nadchodzącej katastrofy. Milo, niewolnik i gladiator, przybywa do miasta, by stoczyć walkę, która może dać mu wolność i prawo do ubiegania się o rękę ukochanej Flavii. Jego szanse są nikłe, bo dziewczyna została już przeznaczona skorumpowanemu rzymskiemu generałowi. Wkrótce jednak potęga natury odmieni losy wszystkich mieszkańców Pompei. Kiedy Wezuwiusz wybucha, wyrzucając z siebie potoki śmiercionośnej lawy, Milo musi wydostać się z areny, aby uratować życie ukochanej kobiety, podczas gdy majestatyczne Pompeje pochłania żywioł.



General
Format : Matroska
Format version : Version 2
File size : 11.9 GiB
Duration : 1h 44mn
Overall bit rate mode : Variable
Overall bit rate : 16.2 Mbps
Movie name : Pompeii_3D (2014).Title1.Bluray3D Rip by Sonda [AT-Team]
Encoded date : UTC 2014-06-04 13:24:22
Writing application : mkvmerge v5.7.0 ('The Whirlwind') built on Jul 8 2012 20:08:51
Writing library : libebml v1.2.3 + libmatroska v1.3.0

Video
ID : 1
Format : AVC
Format/Info : Advanced Video Codec
Format profile : High@L4.1
Format settings, CABAC : Yes
Format settings, ReFrames : 2 frames
Codec ID : V_MPEG4/ISO/AVC
Duration : 1h 44mn
Bit rate mode : Variable
Maximum bit rate : 40.0 Mbps
Width : 1 920 pixels
Height : 1 080 pixels
Display aspect ratio : 2.39:1
Frame rate mode : Constant
Frame rate : 23.976 fps
Color space : YUV
Chroma subsampling : 4:2:0
Bit depth : 8 bits
Scan type : Progressive
Title : Rip by Sonda
Writing library : x264 core
Default : Yes
Forced : No
Color primaries : BT.709
Transfer characteristics : BT.709
Matrix coefficients : BT.709

Audio #1
ID : 2
Format : AC-3
Format/Info : Audio Coding 3
Mode extension : CM (complete main)
Format settings, Endianness : Big
Codec ID : A_AC3
Duration : 1h 44mn
Bit rate mode : Constant
Bit rate : 384 Kbps
Channel(s) : 6 channels
Channel positions : Front: L C R, Side: L R, LFE
Sampling rate : 48.0 KHz
Bit depth : 16 bits
Compression mode : Lossy
Stream size : 288 MiB (2%)
Title : AC3 5.1 Lektor PL
Language : Polish
Default : Yes
Forced : Yes

Audio #2
ID : 3
Format : AC-3
Format/Info : Audio Coding 3
Mode extension : CM (complete main)
Format settings, Endianness : Big
Codec ID : A_AC3
Duration : 1h 44mn
Bit rate mode : Constant
Bit rate : 640 Kbps
Channel(s) : 6 channels
Channel positions : Front: L C R, Side: L R, LFE
Sampling rate : 48.0 KHz
Bit depth : 16 bits
Compression mode : Lossy
Stream size : 481 MiB (4%)
Title : AC3 5.1 English
Language : English
Default : No
Forced : No

Audio #3
ID : 4
Format : DTS
Format/Info : Digital Theater Systems
Format profile : MA / Core
Mode : 16
Format settings, Endianness : Big
Codec ID : A_DTS
Duration : 1h 44mn
Bit rate mode : Variable
Bit rate : 4077 / 1 509 Kbps
Channel(s) : 6 channels
Channel positions : Front: L C R, Side: L R, LFE
Sampling rate : 48.0 KHz
Bit depth : 24 bits
Compression mode : Lossless / Lossy
Title : DTS-HD MA 5.1 Original
Language : English
Default : No
Forced : No

Text #1
ID : 5
Format : UTF-8
Codec ID : S_TEXT/UTF8
Codec ID/Info : UTF-8 Plain Text
Title : napisy 2D.srt
Language : Polish
Default : No
Forced : No

Text #2
ID : 6
Format : PGS
Muxing mode : zlib
Codec ID : S_HDMV/PGS
Codec ID/Info : The same subtitle format used on BDs/HD-DVDs
Title : napisy 3D.sup
Language : Polish
Default : No
Forced : No

Menu
00:00:00.000 : en:(01)00:00:00:000
00:05:27.076 : en:(02)00:05:27:076
00:09:51.674 : en:(03)00:09:51:674
00:15:58.457 : en:(04)00:15:58:457
00:19:52.858 : en:(05)00:19:52:858
00:26:45.103 : en:(06)00:26:45:103
00:32:36.621 : en:(07)00:32:36:621
00:38:18.838 : en:(08)00:38:18:838
00:47:35.811 : en:(09)00:47:35:811
00:52:17.717 : en:(10)00:52:17:717
01:03:25.218 : en:(11)01:03:25:218
01:09:02.930 : en:(12)01:09:02:930
01:17:27.309 : en:(13)01:17:27:309
01:23:46.521 : en:(14)01:23:46:521
01:30:04.148 : en:(15)01:30:04:148
01:35:08.119 : en:(16)01:35:08:119

Dostępne napisy
Brak napisów
Szczegóły torrenta
Tracker http://tracker.aletorrenty.pl:2710/announce
Multitracker [ Pokaż ]
Kategoria: » » » [Zgłoś błąd]
Dodane 03-10-2017
Podziękowali:
0 użytkowników 
Podziękuj!
Pokaż / Ukryj pliki:
Nazwa pliku Rozmiar
Pompeii_3D (2014).1080p(Sonda).mkv 11.88 GB
99476_front.jpg 419.71 KB
AT-TEAM old movie.jpg 140.78 KB
Pompeii_3D (2014).1080p(Sonda).srt 43.51 KB
AT-TEAM.jpg 36.66 KB
Pompeii_3D (2014).1080p(Sonda).txt 28.01 KB
Read iNFO.txt 2.07 KB
Ale Torrenty Team enjoy !.url 0.11 KB
8 plików
Brak komentarzy...