Enable / Włącz Javascript
 Widok 
 Kategorie 
 Nitro Torrent w sieci 
 Top 10 użytkowników 
 Salvation S02E13 - Get Ready [720p.AMZN.WEB-DL.H.264.DDP5.1] [Napisy PL]

Salvation S02E13 - Get Ready [720p.AMZN.WEB-DL.H.264.DDP5.1] [Napisy PL]
Kategoria: » » » »
Dodane: 26/09/2018
Rozmiar: 994.76 MB
Uploader: Lukarusi (1)
seed(ów): 18
leecher(ów): 7
Pobrane: 94
Komentarzy: 0
Pobierz Torrent Pobierz Torrent
Pobierz [Magnet] Pobierz [Magnet]

Obserwuj
Raportuj
Info

produkcja: USA
gatunek: Sci-Fi, Thriller, Dramat
reżyseria: Kenneth Fink, Juan Carlos Fresnadillo, Stuart Gillard
scenariusz: Elizabeth Kruger, Craig Shapiro, Christina M. Walker
zdjęcia: Mark Willis, Dave Sheridan
muzyka: John Paesano
czas trwania: ok. 44 min.

Opis

Bohaterami serialu są absolwent MIT Liamie oraz miliarder Darius Tanz, którzy informują niską rangą pracownicę Pentagonu, że pewna planetoida jest na kursie kolizyjnym z Ziemią. Do zderzenia ma dojść za pół roku.

Obsada

Ian Anthony Dale - Harris Edwards
Santiago Cabrera - Darius Tanz
Jennifer Finnigan - Grace Barrows
Dennis Boutsikaris - Dr. Malcom Croft
Charlie Rowe - Liam Cole
Aaron Poole - Lazlo Simms
Kyle Alcock - Tanz employee
Lovina Yavari - Naomi

Dane Techniczne

Format : Matroska
Format version : Version 4 / Version 2
File size : 995 MiB
Duration : 43 min 43 s
Overall bit rate : 3 181 kb/s
Encoded date : UTC 2018-09-26 15:56:40

Video
ID : 1
Format : AVC
Format/Info : Advanced Video Codec
Format profile : High@L3.1
Format settings : CABAC / 5 Ref Frames
Format settings, CABAC : Yes
Format settings, ReFrames : 5 frames
Codec ID : V_MPEG4/ISO/AVC
Duration : 43 min 42 s
Bit rate : 2 539 kb/s
Width : 1 280 pixels
Height : 720 pixels
Display aspect ratio : 16:9
Frame rate mode : Constant
Frame rate : 24.000 FPS
Color space : YUV
Chroma subsampling : 4:2:0
Bit depth : 8 bits
Scan type : Progressive
Bits/(Pixel*Frame) : 0.115
Stream size : 794 MiB (80%)
Default : Yes
Forced : Yes
Color range : Limited
Color primaries : BT.709
Transfer characteristics : BT.709
Matrix coefficients : BT.709

Audio
ID : 2
Format : E-AC-3
Format/Info : Enhanced Audio Coding 3
Codec ID : A_EAC3
Duration : 43 min 43 s
Bit rate mode : Constant
Bit rate : 640 kb/s
Channel(s) : 6 channels
Channel positions : Front: L C R, Side: L R, LFE
Sampling rate : 48.0 kHz
Frame rate : 187.500 FPS (256 SPF)
Compression mode : Lossy
Stream size : 200 MiB (20%)
Language : English
Service kind : Complete Main
Default : Yes
Forced : Yes

Text
ID : 3
Format : UTF-8
Codec ID : S_TEXT/UTF8
Codec ID/Info : UTF-8 Plain Text
Duration : 43 min 1 s
Bit rate : 66 b/s
Count of elements : 627
Stream size : 21.0 KiB (0%)
Language : Polish
Default : Yes
Forced : Yes
Dostępne napisy
Brak napisów
Szczegóły torrenta
Tracker http://tracker.vanitycore.co:6969/announce
Multitracker [ Pokaż ]
Kategoria: » » » » [Zgłoś błąd]
Dodane 26-09-2018
Podziękowali:
0 użytkowników 
Podziękuj!
Pokaż / Ukryj pliki:
Nazwa pliku Rozmiar
Salvation S02E13 - Get Ready [720p.AMZN.WEB-DL.H.264.DDP5.1] [Napisy PL].mkv 994.71 MB
Salvation S02E13 - Get Ready [720p.AMZN.WEB-DL.H.264.DDP5.1] [Napisy PL].srt 45.36 KB
2 plików
Brak komentarzy...