Enable / Włącz Javascript
 Widok 
 Kategorie 
 Nitro Torrent w sieci 
 Top 10 użytkowników 
 The Crossing S01E11 - These Are the Names [1080p.WEB-DL.H.264.DD5.1] [Napisy PL]

The Crossing S01E11 - These Are the Names [1080p.WEB-DL.H.264.DD5.1] [Napisy PL]
Kategoria: » » » »
Dodane: 13/06/2018
Rozmiar: 1.59 GB
Uploader: Lukarusi (1)
seed(ów): 29
leecher(ów): 9
Pobrane: 80
Komentarzy: 0
Pobierz Torrent Pobierz Torrent
Pobierz [Magnet] Pobierz [Magnet]

Obserwuj
Raportuj
Info

produkcja: USA
gatunek: Sci-Fi, Dramat, Przygodowy
reżyseria: Rob Bowman, Jeffrey G. Hunt, Alex Zakrzewski
scenariusz: Jay Beattie, Dan Dworkin
muzyka: Robert Duncan
zdjęcia: Brian Pearson, Thomas Yatsko
czas trwania: ok. 42 min.

Opis

Uchodźcy z odległej przyszłości uciekają z rozdartego wojną kraju. Szukając azylu, cofają się w czasie o 250 lat i zaczynają pojawiać się w jednym z amerykańskich miasteczek.

Obsada

Natalie Martinez - Reece
Tommy Bastow - Marshall
Rob Campbell - Paul
Marcuis Harris - Caleb
Jay Karnes - Craig Lindauer
Luc Roderique - Bryce Foster
Bailey Skodje - Leah
Sandrine Holt - Emma Peralta
Steve Zahn - Jude Ellis
Simone Kessell - Rebecca
Grant Harvey - Roy Aronson
Kelley Missal - Hannah
Rick Gomez - Nestor Rosario

Dane Techniczne

Format : Matroska
Format version : Version 4 / Version 2
File size : 1.59 GiB
Duration : 41 min 58 s
Overall bit rate : 5 427 kb/s
Encoded date : UTC 2018-06-13 05:00:33

Video
ID : 1
Format : AVC
Format/Info : Advanced Video Codec
Format profile : High@L4
Format settings : CABAC / 4 Ref Frames
Format settings, CABAC : Yes
Format settings, ReFrames : 4 frames
Codec ID : V_MPEG4/ISO/AVC
Duration : 41 min 58 s
Bit rate mode : Constant
Bit rate : 5 278 kb/s
Width : 1 920 pixels
Height : 1 080 pixels
Display aspect ratio : 16:9
Frame rate mode : Constant
Frame rate : 23.976 (24000/1001) FPS
Color space : YUV
Chroma subsampling : 4:2:0
Bit depth : 8 bits
Scan type : Progressive
Bits/(Pixel*Frame) : 0.106
Stream size : 1.48 GiB (93%)
Color range : Limited
Color primaries : BT.709
Transfer characteristics : BT.709
Matrix coefficients : BT.709

Audio
ID : 2
Format : AC-3
Format/Info : Audio Coding 3
Codec ID : A_AC3
Duration : 41 min 58 s
Bit rate mode : Constant
Bit rate : 384 kb/s
Channel(s) : 6 channels
Channel positions : Front: L C R, Side: L R, LFE
Sampling rate : 48.0 kHz
Frame rate : 31.250 FPS (1536 SPF)
Bit depth : 16 bits
Compression mode : Lossy
Stream size : 115 MiB (7%)
Language : English
Service kind : Complete Main
Default : Yes
Forced : Yes

Text
ID : 3
Format : UTF-8
Codec ID : S_TEXT/UTF8
Codec ID/Info : UTF-8 Plain Text
Duration : 40 min 35 s
Bit rate : 38 b/s
Count of elements : 472
Stream size : 11.4 KiB (0%)
Language : Polish
Default : Yes
Forced : Yes
Dostępne napisy
Brak napisów
Szczegóły torrenta
Tracker http://tracker.vanitycore.co:6969/announce
Multitracker [ Pokaż ]
Kategoria: » » » » [Zgłoś błąd]
Dodane 13-06-2018
Podziękowali:
1 użytkownik 
[ Pokaż ]
Podziękuj!
Pokaż / Ukryj pliki:
Nazwa pliku Rozmiar
The Crossing S01E11 - These Are the Names [1080p.WEB-DL.H.264.DD5.1] [Napisy PL].mkv 1.59 GB
The Crossing S01E11 - These Are the Names [1080p.WEB-DL.H.264.DD5.1] [Napisy PL].srt 29.73 KB
2 plików
Brak komentarzy...